[其他] 演出焦虑症 Performance Anxiety [MP4][93.8M][快传]



◎片  名:演出焦虑症
◎原  名:Performance Anxiety
◎年  份:2012年
◎地  区:喜剧
◎语  言:英语
◎片  长:13分钟
◎类  别:短片
◎导  演:Reid Waterer
◎演  员:Danny Lopes |
              Lawrence Nicols
              Anthem Moss

◎简  介:

  Two straight actors must rehearse for an impending gay love scene. How will they make out?
  1. Performance Anxiety

  2.     Format : MPEG-4
  3.     Format profile : Base Media / Version 2
  4.     Codec ID : mp42
  5.     File size : 93.8 MiB
  6.     Duration : 13mn 35s
  7.     Overall bit rate mode : Variable
  8.     Overall bit rate : 965 Kbps
  9.    
  10.   Video #1
  11.     ID : 1
  12.     Format : AVC
  13.     Format/Info : Advanced Video Codec
  14.     Format profile : Main@L3.2
  15.     Format settings, CABAC : Yes
  16.     Format settings, ReFrames : 4 frames
  17.     Codec ID : avc1
  18.     Codec ID/Info : Advanced Video Coding
  19.     Duration : 13mn 33s
  20.     Bit rate : 797 Kbps
  21.     Width : 800 pixels
  22.     Height : 450 pixels
  23.     Display aspect ratio : 16:9
  24.     Frame rate mode : Constant
  25.     Frame rate : 25.000 fps
  26.     Color space : YUV
  27.     Chroma subsampling : 4:2:0
  28.     Bit depth : 8 bits
  29.     Scan type : Progressive
  30.     Bits/(Pixel*Frame) : 0.089
  31.     Stream size : 77.3 MiB (82%)
  32.    
  33.   Audio #2
  34.     ID : 2
  35.     Format : AAC
  36.     Format/Info : Advanced Audio Codec
  37.     Format profile : LC
  38.     Codec ID : 40
  39.     Duration : 13mn 35s
  40.     Bit rate mode : Variable
  41.     Bit rate : 165 Kbps
  42.     Maximum bit rate : 234 Kbps
  43.     Channel count : 2 channels
  44.     Channel positions : Front: L R
  45.     Sampling rate : 48.0 KHz
  46.     Compression mode : Lossy
  47.     Stream size : 16.1 MiB (17%)
复制代码


本帖隐藏的内容需要回复才可以浏览

哇 好帅的说么 嘿嘿

TOP

片刻了谢谢

TOP

目测喜剧
谢谢楼主分享

TOP

谢谢分享

TOP

支持一下 万分感谢了

TOP

好帅的说么 嘿嘿

TOP

没有中字???

TOP

看看感谢分享~~~~~~~~~~·

TOP

謝謝分享

TOP

\(^_^)(^_^)/,有新片看了,支持

TOP

谢谢楼主发帖

TOP

楼主,没有介绍啊~~

TOP

也太诱人了吧,感谢分享

TOP

看起来不错;

TOP

记得这个还有个长片的

TOP

收下了,感謝大大的分享。

TOP

看上去不错哦

TOP

好帅的说么

TOP

又是两只帅帅

TOP

多谢楼主上传

TOP

感谢分享哦

TOP

回复 1# imurman


    希望有方便的资源……13分钟,还是可以接受的

TOP

短片,帅哥,还需要什么理由~

TOP

谢谢分享了很好的

TOP

  • QAF三国群英传信息联盟发布平台
  •